<?xml version="1.0" standalone="no"?>
<!DOCTYPE svg PUBLIC "-//W3C//DTD SVG 1.1//EN" "http://www.w3.org/Graphics/SVG/1.1/DTD/svg11.dtd" >
<svg xmlns="http://www.w3.org/2000/svg">
<metadata></metadata>
<defs>
<font id="cs_chatthaiuiregular" horiz-adv-x="0" >
<font-face units-per-em="2560" ascent="2048" descent="-512" />
<missing-glyph horiz-adv-x="767" />
<glyph unicode="&#xd;" horiz-adv-x="853" />
<glyph unicode=" "  horiz-adv-x="767" />
<glyph unicode="&#x09;" horiz-adv-x="767" />
<glyph unicode="&#xa0;" horiz-adv-x="767" />
<glyph unicode="!" horiz-adv-x="673" d="M200 136q0 -70 36.5 -112t99.5 -42q64 0 101 42t37 112q0 46 -17 80t-48 52.5t-73 18.5q-63 0 -99.5 -40.5t-36.5 -110.5zM455 591v1232h-236v-1232h236z" />
<glyph unicode="&#x22;" horiz-adv-x="911" d="M386 1820v-338l-64 -312h-101l-61 312v338h226zM751 1820v-338l-64 -312h-101l-61 312v338h226z" />
<glyph unicode="#" horiz-adv-x="1595" d="M790 0l100 512h-319l-100 -512h-189l100 512h-294v176h330l84 434h-320v178h356l102 520h189l-103 -520h319l103 520h188l-102 -520h248v-178h-282l-85 -434h274v-176h-309l-100 -512h-190zM691 1122l-85 -434h319l85 434h-319z" />
<glyph unicode="$" horiz-adv-x="1491" d="M878 2120v-283q177 -29 292.5 -137.5t145.5 -262.5l-177 -82q-52 242 -261 294v-663q221 -74 335.5 -206.5t114.5 -318.5q0 -200 -126 -325t-324 -154v-240h-227v240q-189 25 -313 130t-159 272l205 70q15 -110 85.5 -184t181.5 -101v680q-436 152 -436 500 q0 196 122.5 327t313.5 162v282h227zM1106 459v1q0 123 -58.5 197t-169.5 119v-607q105 26 166.5 99.5t61.5 190.5zM437 1352q0 -108 56 -176.5t158 -112.5v587q-102 -26 -158 -102t-56 -196z" />
<glyph unicode="%" horiz-adv-x="1872" d="M130 1374v96q0 162 102 268q103 108 274 108q170 0 274 -108q102 -105 102 -268v-96q0 -161 -102 -266q-103 -108 -271 -108q-172 0 -277 108q-102 105 -102 266zM312 1470v-96q0 -93 50 -158q52 -64 147 -64q89 0 141 64q50 62 50 158v96q0 92 -51 158t-143 66 q-93 0 -144 -66q-50 -65 -50 -158zM1011 349v97q0 160 103 266q104 109 274 109q168 0 272 -109q104 -107 104 -266v-97q0 -162 -103 -268q-104 -107 -271 -107q-172 0 -276 107q-103 106 -103 268zM1194 446v-97q0 -94 50 -159q52 -64 146 -64q89 0 141 64q50 65 50 159v97 q0 92 -51 158q-50 65 -142 65q-94 0 -144 -65t-50 -158zM1461 1560l-889 -1422l-136 83l889 1423z" />
<glyph unicode="&#x26;" horiz-adv-x="1595" d="M80 490q0 73 20.5 137.5t50 111t80.5 95t93 79t107 73.5q-35 44 -43.5 55t-37.5 50.5t-38 56.5t-28 54t-25.5 64t-13 64t-6.5 76q0 210 121.5 325t335.5 115q185 0 315 -109t130 -278q0 -47 -11 -91t-27.5 -78.5t-44 -69.5t-53 -60t-63 -55t-65.5 -49t-68.5 -47 t-63.5 -45l425 -512q97 153 108 349l211 -105q-34 -237 -180 -411l231 -279l-2 -6h-287l-106 128q-206 -154 -473 -154q-169 0 -302.5 60.5t-211.5 179t-78 276.5zM672 166q180 0 343 119l-451 544q-37 -28 -51.5 -38.5t-47 -37.5t-46.5 -43t-36 -44t-31.5 -52t-17.5 -56.5 t-8 -67.5q0 -149 94 -236.5t252 -87.5zM485 1409q0 -124 135 -295q13 9 62.5 41.5t70 47.5t59 48.5t56 60t32.5 66t15 81.5q0 82 -64.5 137.5t-154.5 55.5q-98 0 -154.5 -69t-56.5 -174z" />
<glyph unicode="'" horiz-adv-x="547" d="M387 1820v-338l-64 -312h-101l-62 312v338h227z" />
<glyph unicode="(" horiz-adv-x="848" d="M165 728v11q0 280 82 548.5t222.5 467.5t311.5 290l8 -1l47 -145q-198 -155 -311.5 -465t-113.5 -693v-16q0 -385 113 -694t312 -475l-47 -135h-8q-171 91 -311.5 290.5t-222.5 468t-82 548.5z" />
<glyph unicode=")" horiz-adv-x="858" d="M679 739v-11q0 -280 -82 -548.5t-223 -467.5t-312 -291h-7l-47 135q197 154 310.5 470t113.5 699v16q0 372 -116.5 690t-307.5 479l47 135h7q128 -69 241.5 -202.5t196.5 -305t131 -380t48 -418.5z" />
<glyph unicode="*" horiz-adv-x="1105" d="M208 612l197 258l-295 84l61 192l295 -112l-12 317h201l-13 -325l292 112l60 -196l-303 -84l191 -250l-164 -120l-176 272l-168 -262z" />
<glyph unicode="+" horiz-adv-x="1452" d="M846 1508v-529h499v-223h-499v-574h-246v574h-502v223h502v529h246z" />
<glyph unicode="," horiz-adv-x="505" d="M394 276v-86l-198 -512h-136l88 524v74h246z" />
<glyph unicode="-" horiz-adv-x="1153" d="M946 865v-193h-737v193h737z" />
<glyph unicode="." horiz-adv-x="675" d="M438 242v-242h-237v242h237z" />
<glyph unicode="/" horiz-adv-x="1062" d="M989 1820l-759 -1976h-210l760 1976h209z" />
<glyph unicode="0" horiz-adv-x="1441" d="M1300 1178v-536q0 -194 -66 -343.5t-198.5 -237t-314.5 -87.5t-314.5 87t-199 237t-66.5 344v536q0 144 38.5 266t111 211.5t182.5 140t246 50.5q181 0 314 -87.5t200 -237.5t67 -343zM1064 592v637q0 126 -36 221.5t-115.5 153.5t-193.5 58q-169 0 -255 -119.5 t-86 -313.5v-637q0 -126 36 -222t114.5 -155t192.5 -59q170 0 256.5 120t86.5 316z" />
<glyph unicode="1" horiz-adv-x="1441" d="M888 1846v-1846h-238v1431l10 195l-376 -199l-39 178l435 241h208z" />
<glyph unicode="2" horiz-adv-x="1441" d="M742 1663q-144 0 -248 -86t-120 -213l-187 87q31 179 185 288.5t370 107.5q234 0 379 -131t145 -353q0 -50 -8 -97t-19.5 -86t-32.5 -81.5t-40 -74t-50 -73t-53 -69t-59 -73t-59 -73.5l-459 -537l3 -7h829v-191h-1130v183l581 657q18 22 53 64.5t50.5 62.5t43 57t40 60 t30 59t25 67t13.5 71.5t6 83.5q0 132 -78.5 214.5t-209.5 82.5z" />
<glyph unicode="3" horiz-adv-x="1441" d="M730 1662h1q-143 0 -245.5 -87t-118.5 -215l-187 87q31 178 183.5 288t366.5 111q256 0 398.5 -123.5t142.5 -361.5q0 -134 -66.5 -244t-186.5 -172q138 -58 209.5 -174.5t71.5 -282.5q0 -237 -157 -375.5t-412 -138.5h-1q-216 0 -370 109.5t-185 287.5l187 87 q16 -128 120.5 -215.5t248.5 -86.5q152 0 242 90t90 236q0 185 -82.5 276t-255.5 91h-183v181h183q165 0 238 85t73 251q0 137 -78.5 216.5t-226.5 79.5z" />
<glyph unicode="4" horiz-adv-x="1441" d="M1116 1820v-1208h250v-182h-250v-430h-235v430h-791v129l766 1261h260zM840 1415l-496 -803h537v874l-7 2z" />
<glyph unicode="5" horiz-adv-x="1441" d="M418 798l-200 52l102 970h911v-209h-714l-59 -533q138 100 303 101q256 1 397.5 -162.5t141.5 -436.5q0 -279 -151 -442.5t-424 -163.5q-218 0 -356.5 95.5t-168.5 272.5l187 87q16 -127 105 -200t233 -73q166 0 252.5 116.5t86.5 305.5q0 175 -89 286.5t-250 111.5 q-136 0 -204.5 -40t-102.5 -138z" />
<glyph unicode="6" horiz-adv-x="1441" d="M801 1846q101 0 208.5 -21.5t178.5 -53.5l-53 -179q-162 70 -334 70q-124 0 -216 -80.5t-135.5 -204.5t-43.5 -271v-111q79 77 186.5 120.5t228.5 43.5q157 0 273.5 -75t176 -203.5t59.5 -292.5q0 -275 -151.5 -444.5t-414.5 -169.5q-182 0 -318.5 97t-205.5 258t-69 361 v389q0 123 28.5 237.5t84 210.5t131 167.5t175 111.5t211.5 40zM742 985q-117 0 -203 -51.5t-133 -141.5v-126q0 -135 38.5 -248.5t121.5 -187.5t198 -74q109 0 185.5 60.5t110.5 155.5t34 216q0 180 -91.5 288.5t-260.5 108.5z" />
<glyph unicode="7" horiz-adv-x="1441" d="M1329 1820v-194l-628 -1626h-236l641 1636h-985v184h1208z" />
<glyph unicode="8" horiz-adv-x="1444" d="M1264 1355q0 -148 -82.5 -255t-209.5 -158q148 -51 245 -165.5t97 -276.5q0 -246 -160.5 -386t-417.5 -140q-131 0 -241 34.5t-191.5 99t-127.5 165.5t-46 227q0 164 100 279t253 165q-141 53 -221.5 161.5t-80.5 249.5q0 158 71 270t194.5 166.5t286.5 54.5 q238 0 384.5 -130t146.5 -361zM1080 505q0 149 -99.5 250t-247.5 101q-157 0 -262 -99t-105 -252q0 -158 104 -253.5t266 -95.5q149 0 246.5 99t97.5 250zM1028 1351q0 133 -83 222t-212 89q-139 0 -227.5 -86t-88.5 -225q0 -141 89.5 -231t229.5 -90q129 0 210.5 92 t81.5 229z" />
<glyph unicode="9" horiz-adv-x="1441" d="M626 156q189 0 292.5 138t103.5 362v135q-59 -88 -148 -134t-196 -46q-268 0 -415 164.5t-147 446.5q0 171 68.5 313t195.5 226.5t288 84.5q283 0 442.5 -175t159.5 -470v-532q0 -315 -175 -505t-469 -190q-208 0 -385 78l38 178q82 -40 161.5 -57t185.5 -17zM678 794 q124 0 213 56.5t131 151.5v236q0 203 -91 313.5t-256 110.5q-101 0 -176 -64t-111 -162t-36 -214q0 -89 20 -165t59 -135.5t102.5 -93.5t144.5 -34z" />
<glyph unicode=":" horiz-adv-x="627" d="M427 242v-242h-227v242h227zM427 1348v-243h-227v243h227z" />
<glyph unicode=";" horiz-adv-x="657" d="M448 1348v-243h-235v243h235zM457 265v-205l-187 -382h-135l87 394v193h235z" />
<glyph unicode="&#x3c;" horiz-adv-x="1300" d="M1109 1035l-805 -334v-7l805 -329v-231l-1020 474v186l1020 472v-231z" />
<glyph unicode="=" horiz-adv-x="1441" d="M1232 1224v-185h-1042v185h1042zM1232 704v-185h-1042v185h1042z" />
<glyph unicode="&#x3e;" horiz-adv-x="1340" d="M170 1018v223l1070 -472v-187l-1070 -473v225l854 338v8z" />
<glyph unicode="?" horiz-adv-x="1217" d="M438 126q0 67 35.5 108t95.5 41q61 0 97 -40.5t36 -108.5q0 -67 -36 -106.5t-97 -39.5t-96 39t-35 107zM690 512h-226q1 142 31 232q26 68 76.5 133t101.5 115t99 104t78.5 122t30.5 146q0 142 -75.5 218.5t-216.5 76.5q-82 0 -150 -30t-111.5 -91.5t-43.5 -142.5 l-208 56q0 101 68.5 192t188 147t256.5 56q240 0 379.5 -124t139.5 -352q0 -72 -19 -135.5t-50 -111.5t-69.5 -91.5t-79.5 -83.5t-77.5 -79t-66 -88t-42.5 -101q-14 -56 -14 -168z" />
<glyph unicode="@" horiz-adv-x="2291" d="M2165 628q-4 -135 -41.5 -251.5t-105.5 -207.5t-175.5 -143t-242.5 -52q-91 0 -157 52t-95 146q-124 -198 -363 -198q-88 0 -153.5 46.5t-100.5 124.5t-48.5 174t-3.5 201q9 107 33.5 207t67.5 193.5t101 162.5t140.5 110.5t178.5 41.5q132 0 208 -29.5t177 -103.5l-5 -4 h8l-64 -732q-10 -115 18.5 -178t109.5 -63q85 0 152 43.5t108 116.5t63.5 160t25.5 183q7 184 -18.5 338t-86.5 279.5t-155.5 212.5t-231 134t-308.5 47q-163 0 -301.5 -54.5t-239.5 -150.5t-174 -227.5t-111.5 -285t-45.5 -323.5q0 -179 28.5 -331t90 -279.5t153 -217 t223.5 -139.5t295 -50q108 0 224 28t189 70l48 -134q-78 -49 -209.5 -80t-256.5 -31q-242 0 -429 85t-305 240.5t-178 367t-60 471.5q0 245 74.5 461.5t209.5 378.5t337 256.5t443 94.5t428.5 -85.5t305.5 -240.5t175.5 -366.5t49.5 -468.5zM900 520q-14 -177 26.5 -269.5 t133.5 -92.5q84 0 149.5 32t118.5 108q-2 42 2 68l59 673q-70 32 -143 32q-155 0 -237.5 -135t-108.5 -416z" />
<glyph unicode="A" horiz-adv-x="1620" d="M1313 0l-160 479h-684l-163 -479h-251l631 1820h250l629 -1820h-252zM804 1509l-274 -824h563l-271 824h-18z" />
<glyph unicode="B" horiz-adv-x="1614" d="M205 0v1820h595q595 0 595 -485q0 -135 -78 -230t-202 -147q150 -40 239.5 -152t89.5 -281q0 -258 -162.5 -391.5t-439.5 -133.5h-637zM440 857v-675h402q168 0 269.5 89.5t101.5 250.5q0 167 -92.5 251t-267.5 84h-413zM440 1039h368q159 0 257.5 76.5t98.5 220.5 q0 159 -93 229.5t-271 70.5h-360v-597z" />
<glyph unicode="C" horiz-adv-x="1603" d="M846 156q110 0 191 20t135.5 61.5t89 96t58.5 132.5l183 -87q-48 -195 -223.5 -302t-432.5 -103q-208 0 -368 95.5t-244.5 257t-84.5 361.5v443q0 199 85 361t245 258t367 96q254 0 429.5 -108t222.5 -302l-183 -87q-24 78 -58 133t-88.5 97t-134.5 62.5t-189 20.5 t-198 -43.5t-145.5 -117t-87 -168t-30.5 -199.5v-446q0 -106 30 -200.5t86.5 -168.5t145.5 -118t199 -45z" />
<glyph unicode="D" horiz-adv-x="1693" d="M205 0v1820h534q183 0 331.5 -54t249 -151t154.5 -233.5t54 -299.5v-347q0 -337 -216 -536t-594 -199h-513zM442 1636v-1454h276q282 0 429 149t147 404v351q0 253 -140 401.5t-415 148.5h-297z" />
<glyph unicode="E" horiz-adv-x="1406" d="M1199 1033v-184h-758v-667h885v-182h-1121v1820h1107v-184h-871v-603h758z" />
<glyph unicode="F" horiz-adv-x="1406" d="M1219 999v-184h-778v-815h-236v1820h1141v-184h-905v-637h778z" />
<glyph unicode="G" horiz-adv-x="1730" d="M851 1846q254 0 429.5 -108.5t222.5 -302.5l-183 -87q-24 78 -58 133t-88.5 97t-134.5 63t-188 21q-145 0 -252.5 -72t-160 -189t-52.5 -261v-478q0 -138 59 -252.5t172.5 -184t260.5 -69.5q289 0 406 182v380h-403v182h639v-615q-80 -143 -251 -227t-391 -84 q-210 0 -376.5 89t-259 246t-92.5 353v476q0 152 50 282.5t140.5 224.5t222 147.5t288.5 53.5z" />
<glyph unicode="H" horiz-adv-x="1797" d="M1587 1820v-1820h-237v824h-903v-824h-237v1820h237v-812h903v812h237z" />
<glyph unicode="I" horiz-adv-x="727" d="M482 1820v-1820h-237v1820h237z" />
<glyph unicode="J" horiz-adv-x="1391" d="M626 -26h-1q-218 0 -356.5 95.5t-168.5 272.5l187 87q16 -127 105 -200t234 -73q146 0 232.5 103t86.5 259v1302h236v-1302q0 -245 -153 -394.5t-402 -149.5z" />
<glyph unicode="K" horiz-adv-x="1622" d="M1304 0l-623 871l-239 -262v-609h-237v1820h237v-912l820 912h282l-1 -10l-725 -788l779 -1016v-6h-293z" />
<glyph unicode="L" horiz-adv-x="1384" d="M446 1820v-1638h878v-182h-1114v1820h236z" />
<glyph unicode="M" horiz-adv-x="2207" d="M529 1820l571 -1499h22l574 1499h306v-1820h-236v1440h-7l-36 -120l-506 -1300h-211l-517 1298l-40 122h-8v-1440h-236v1820h324z" />
<glyph unicode="N" horiz-adv-x="1797" d="M1587 1820v-1820h-247l-846 1342l-40 88h-7v-1430h-237v1820h247l850 -1348l36 -81h7v1429h237z" />
<glyph unicode="O" horiz-adv-x="1741" d="M1601 1131v-443q0 -151 -55 -282.5t-151.5 -226.5t-235.5 -150t-301 -55q-211 0 -375.5 95t-253.5 257t-89 362v443q0 199 89 361.5t254 258t375 95.5q216 0 386 -94t263.5 -257t93.5 -364zM1365 688v446q0 149 -59.5 267.5t-176 189.5t-271.5 71q-150 0 -261 -72.5 t-165.5 -190.5t-54.5 -265v-446q0 -148 54.5 -267t165 -191.5t261.5 -72.5q157 0 273.5 71t175 190t58.5 270z" />
<glyph unicode="P" horiz-adv-x="1621" d="M901 730h-460v-730h-236v1820h696q182 0 320 -63t216.5 -187.5t78.5 -294.5q0 -171 -78.5 -295.5t-216.5 -187t-320 -62.5zM441 1636v-724h460q181 0 284.5 96t103.5 264q0 167 -104 265.5t-284 98.5h-460z" />
<glyph unicode="Q" horiz-adv-x="1766" d="M1676 -87l-126 -135l-305 290q-172 -94 -387 -94q-211 0 -375.5 95t-253.5 257t-89 362v443q0 199 89 361.5t254 258t375 95.5q216 0 386 -94t263.5 -257t93.5 -364v-443q0 -100 -24.5 -193t-70 -172t-110.5 -143zM1365 688v446q0 149 -59.5 267.5t-176 189.5t-271.5 71 q-150 0 -261 -72.5t-165.5 -190.5t-54.5 -265v-446q0 -148 54.5 -267t165 -191.5t261.5 -72.5q27 0 53 2t50.5 6.5t48 11t45.5 14.5t42 18l-114 108l127 135l134 -128q121 145 121 364z" />
<glyph unicode="R" horiz-adv-x="1627" d="M441 1636v-664h400q189 0 296.5 88t107.5 242t-108.5 244t-295.5 90h-400zM999 803l-1 -12l539 -785l-2 -6h-271l-513 790h-310v-790h-236v1820h636q186 0 328 -59.5t222.5 -177t80.5 -278.5q0 -103 -33.5 -189t-96 -149t-149 -104.5t-194.5 -59.5z" />
<glyph unicode="S" horiz-adv-x="1577" d="M1195 459v1q0 66 -22 119t-56.5 89t-90.5 65.5t-111 48t-131 36.5q-284 69 -436.5 202.5t-152.5 328.5q0 150 83.5 265t219.5 174t300 59q251 0 416.5 -115t204.5 -295l-187 -82q-37 157 -149.5 232.5t-284.5 75.5q-167 0 -266.5 -80.5t-99.5 -230.5q0 -46 13.5 -85.5 t34 -69t55.5 -56t69 -44.5t83 -36t88 -29.5t94 -25.5q276 -71 419.5 -208.5t143.5 -336.5q0 -116 -50.5 -210t-137 -153.5t-198.5 -91.5t-239 -32q-259 0 -433 109t-219 301l218 70q20 -138 140.5 -218t293.5 -80q170 0 279 78t109 225z" />
<glyph unicode="T" horiz-adv-x="1539" d="M1469 1820v-184h-585v-1636h-236v1636h-578v184h1399z" />
<glyph unicode="U" horiz-adv-x="1707" d="M1522 1820v-1262q0 -264 -186 -423.5t-485 -159.5q-304 0 -485 157t-181 426v1262h236v-1262q0 -183 113.5 -292.5t316.5 -109.5q207 0 321 109t114 293v1262h236z" />
<glyph unicode="V" horiz-adv-x="1623" d="M297 1820l484 -1422l24 -103h14l24 101l484 1424h266l-666 -1820h-231l-666 1820h267z" />
<glyph unicode="W" horiz-adv-x="2213" d="M316 1820l270 -1274l25 -166l11 -1l32 165l331 1246h241l332 -1244l34 -170h12l25 170l266 1274h258l-430 -1820h-233l-343 1303l-36 163h-13l-36 -163l-343 -1303h-230l-429 1820h256z" />
<glyph unicode="X" horiz-adv-x="1650" d="M384 1820l349 -579l92 -164l92 165l350 578h280l-579 -892l602 -928h-280l-363 584l-102 187l-102 -188l-363 -583h-280l603 928l-579 892h280z" />
<glyph unicode="Y" horiz-adv-x="1619" d="M329 1820l437 -837l42 -108h6l38 108l438 837h279l-638 -1151v-669h-245v674l-636 1146h279z" />
<glyph unicode="Z" horiz-adv-x="1535" d="M1374 1644l-986 -1437v-25h1027v-182h-1295v182l983 1428v26h-969v184h1240v-176z" />
<glyph unicode="[" horiz-adv-x="690" d="M660 2060v-174h-235v-2082h235v-174h-461v2430h461z" />
<glyph unicode="\" horiz-adv-x="1057" d="M819 -156l-760 1976h212l760 -1976h-212z" />
<glyph unicode="]" horiz-adv-x="690" d="M29 1886v174h462v-2430h-462v174h236v2082h-236z" />
<glyph unicode="^" horiz-adv-x="1070" d="M295 911h-219l374 909h168l372 -909h-216l-223 621h-37z" />
<glyph unicode="_" horiz-adv-x="1163" d="M1159 -20v-172h-1154v172h1154z" />
<glyph unicode="`" horiz-adv-x="777" d="M389 1898l198 -333h-177l-273 325l4 8h248z" />
<glyph unicode="a" horiz-adv-x="1372" d="M599 170q122 0 230.5 58t140.5 138v300h-266q-69 0 -130 -16t-110.5 -48t-78 -85.5t-28.5 -121.5q0 -106 62 -165.5t180 -59.5zM697 1378q226 0 363 -118.5t137 -335.5v-652q0 -157 55 -272h-214q-55 98 -68 172q-66 -83 -173 -140.5t-234 -57.5q-209 0 -321 112 t-112 314q0 93 30 166t81.5 120.5t124 78.5t153 44t174.5 13h277v104q0 125 -75.5 196.5t-211.5 71.5q-244 0 -391 -134l-86 150q172 168 491 168z" />
<glyph unicode="b" horiz-adv-x="1445" d="M1325 751v-166q0 -128 -34 -238.5t-98.5 -194t-166 -131t-229.5 -47.5q-268 0 -398 210l-20 -184h-199v1910h236v-718q132 186 379 186q133 0 236.5 -50.5t166.5 -138t95 -199t32 -239.5zM1089 585v166q0 88 -19.5 163.5t-60 138.5t-111.5 99t-166 36q-215 0 -316 -206 v-606q101 -212 319 -212q92 0 161 32.5t110.5 90.5t62 133t20.5 165z" />
<glyph unicode="c" horiz-adv-x="1318" d="M715 156h1q127 1 216.5 68.5t109.5 179.5l15 6l160 -80q-14 -68 -52 -130t-99 -113.5t-152 -82t-199 -30.5q-140 0 -253.5 47.5t-187.5 131t-114 195.5t-40 242v172q0 130 40.5 242t115 195.5t187.5 131t252 47.5h3q107 0 197.5 -30.5t151.5 -82t99 -113.5t52 -130 l-160 -80l-15 6q-20 111 -110 178t-218 68q-93 0 -163.5 -35t-112 -96t-61.5 -136.5t-20 -164.5v-172q0 -90 19.5 -166t60.5 -137.5t111.5 -96t165.5 -34.5z" />
<glyph unicode="d" horiz-adv-x="1445" d="M120 751v-166q0 -128 34 -238.5t98.5 -194t166 -131t229.5 -47.5q268 0 398 210l19 -184h200v1910h-236v-718q-132 186 -379 186q-133 0 -236.5 -50.5t-166.5 -138t-95 -199t-32 -239.5zM356 585v166q0 88 19.5 163.5t60 138.5t111.5 99t166 36q215 0 316 -206v-606 q-101 -212 -319 -212q-92 0 -161 32.5t-110.5 90.5t-62 133t-20.5 165z" />
<glyph unicode="e" horiz-adv-x="1341" d="M738 -26q-144 0 -262 48t-195 131.5t-119 195.5t-42 241v165q0 166 72 308t206 228.5t301 86.5q542 0 542 -638v-120h-868v-76q0 -78 21.5 -146t64 -123t114.5 -87t165 -32q244 0 391 134l86 -150q-170 -166 -477 -166zM699 1194q-139 0 -223.5 -91t-102.5 -223v-76h632 v80q0 141 -78 225.5t-228 84.5z" />
<glyph unicode="f" horiz-adv-x="875" d="M489 0h-236v1180h-213v152l213 20v152q0 121 30 210.5t87 142.5t132.5 78.5t172.5 26.5q91 1 200 -22l-14 -178q-92 14 -150 13q-54 -1 -93.5 -14t-69 -43t-44.5 -83.5t-15 -130.5v-152h305v-172h-305v-1180z" />
<glyph unicode="g" horiz-adv-x="1450" d="M135 545v186q0 105 19.5 200t61.5 177t103 142t149.5 94t195.5 34q252 0 390 -202l10 176h206v-1410q0 -236 -149 -362t-429 -126q-98 0 -211 27t-199 73l38 181q72 -38 172.5 -61t197.5 -23q179 0 261.5 71t82.5 220v204q-134 -172 -373 -172q-128 0 -229.5 44 t-165.5 122t-97.5 181t-33.5 224zM371 731v-186q0 -172 86.5 -276.5t266.5 -104.5q208 0 310 194v642q-105 188 -308 188q-78 0 -139 -25t-101 -67t-66.5 -101.5t-37.5 -124.5t-11 -139z" />
<glyph unicode="h" horiz-adv-x="1456" d="M426 1910v-739q72 99 173.5 153t223.5 54q221 0 339.5 -122.5t118.5 -367.5v-888h-236v890q0 152 -73.5 225t-222.5 73q-219 0 -323 -164v-1024h-236v1910h236z" />
<glyph unicode="i" horiz-adv-x="646" d="M191 1770q0 67 35 108t96 41t97 -40.5t36 -108.5q0 -44 -16 -77.5t-46.5 -51t-70.5 -17.5q-61 0 -96 39.5t-35 106.5zM441 1352v-1352h-236v1352h236z" />
<glyph unicode="j" horiz-adv-x="653" d="M198 1770q0 67 35 108t96 41t97 -40.5t36 -108.5q0 -44 -16 -77.5t-46.5 -51t-70.5 -17.5q-61 0 -96 39.5t-35 106.5zM216 1352h236v-1423q0 -171 -73.5 -285t-203 -156.5t-297.5 -11.5v184q174 -25 256 32t82 227v1433z" />
<glyph unicode="k" horiz-adv-x="1312" d="M1013 0l-447 663l-150 -139v-524h-236v1910h236v-1135l48 61l483 516h294l-536 -563l582 -789h-274z" />
<glyph unicode="l" horiz-adv-x="636" d="M436 1910v-1910h-236v1910h236z" />
<glyph unicode="m" horiz-adv-x="2230" d="M180 1352h220l7 -197q140 223 405 223q133 0 227 -63t141 -187q66 119 171 184.5t242 65.5q206 0 321.5 -127t115.5 -372v-879h-237v881q0 154 -61 230.5t-212 76.5q-127 0 -205.5 -71.5t-91.5 -177.5v-10v-929h-237v881q0 307 -274 307q-215 0 -296 -197v-991h-236v1352 z" />
<glyph unicode="n" horiz-adv-x="1447" d="M180 1352h220l7 -221q68 119 170.5 183t231.5 64q222 0 340 -115.5t118 -348.5v-914h-236v909q0 149 -71.5 214t-224.5 65q-223 0 -319 -194v-994h-236v1352z" />
<glyph unicode="o" horiz-adv-x="1451" d="M120 581v188q0 171 71 308.5t209.5 219t323.5 81.5q141 0 256.5 -47t191.5 -129t117.5 -193t41.5 -240v-188q0 -129 -41 -239.5t-117 -192.5t-191 -128.5t-255 -46.5q-141 0 -256 46.5t-191.5 128t-118 192.5t-41.5 240zM357 769v-188q0 -87 21.5 -162t65 -135t116 -94 t167.5 -34q94 0 166 34.5t115.5 94.5t65 134.5t21.5 161.5v188q0 68 -13.5 129.5t-43 116t-72 94t-105 62.5t-137.5 23q-93 0 -165 -34.5t-115.5 -95t-65 -135t-21.5 -160.5z" />
<glyph unicode="p" horiz-adv-x="1475" d="M1345 601v166q0 128 -34 238.5t-98.5 194t-166 131t-229.5 47.5q-268 0 -398 -210l-20 184h-199v-1870h236v678q132 -186 379 -186q133 0 236.5 50.5t166.5 138t95 199t32 239.5zM1109 767v-166q0 -88 -19.5 -163.5t-60 -138.5t-111.5 -99t-166 -36q-215 0 -316 206v606 q101 212 319 212q92 0 161 -32.5t110.5 -90.5t62 -133t20.5 -165z" />
<glyph unicode="q" horiz-adv-x="1475" d="M130 601v166q0 128 34 238.5t98.5 194t166 131t229.5 47.5q268 0 398 -210l20 184h199v-1870h-236v678q-132 -186 -379 -186q-133 0 -236.5 50.5t-166.5 138t-95 199t-32 239.5zM366 767v-166q0 -88 19.5 -163.5t60 -138.5t111.5 -99t166 -36q215 0 316 206v606 q-101 212 -319 212q-92 0 -161 -32.5t-110.5 -90.5t-62 -133t-20.5 -165z" />
<glyph unicode="r" horiz-adv-x="926" d="M896 1366l-46 -221q-173 24 -275 -16.5t-159 -172.5v-956h-236v1352h220l13 -217q76 138 197 203t286 28z" />
<glyph unicode="s" horiz-adv-x="1331" d="M675 -26l1 3q-219 0 -360.5 88.5t-175.5 219.5l174 87q29 -104 127.5 -160t233.5 -56q134 0 212 58t78 150q0 38 -10.5 69t-32.5 53.5t-46.5 39t-63.5 30t-71.5 22t-81.5 18.5q-247 52 -371 143.5t-124 238.5q0 119 72 212t186 140.5t247 47.5h1q198 0 331 -85.5 t165 -208.5l-174 -87q-22 90 -116 143.5t-207 53.5q-118 0 -193.5 -54.5t-75.5 -154.5q0 -37 8.5 -66t29.5 -50t41 -34.5t59 -25.5t67 -18.5t80 -17.5q7 -1 10 -2q253 -52 379.5 -147t126.5 -243q0 -127 -74 -221.5t-192 -140t-260 -45.5z" />
<glyph unicode="t" horiz-adv-x="850" d="M289 1679h196v-327h297v-172h-297v-831q0 -181 155 -182q62 -1 155 29v-177q-35 -20 -99.5 -32.5t-128.5 -12.5q-158 0 -238 97.5t-80 277.5v831h-214v132l214 40z" />
<glyph unicode="u" horiz-adv-x="1442" d="M1262 0h-220l-7 221q-68 -119 -170.5 -183t-231.5 -64q-222 0 -340 115.5t-118 348.5v914h246v-909q0 -149 69 -214t217 -65q223 0 319 194v994h236v-1352z" />
<glyph unicode="v" horiz-adv-x="1307" d="M1006 1352l-315 -973l-24 -118h-22l-28 118l-316 973h-241l497 -1352h187l503 1352h-241z" />
<glyph unicode="w" horiz-adv-x="1919" d="M1613 1352l-222 -940l-22 -133h-8l-27 135l-275 918h-198l-280 -922l-26 -131h-8l-21 131l-219 942h-247l383 -1352h198l284 924l34 135h9l33 -135l276 -924h199l383 1352h-246z" />
<glyph unicode="x" horiz-adv-x="1287" d="M976 1352l-265 -426l-61 -112h-8l-61 112l-266 426h-242l458 -668l-471 -684h242l268 435l69 126h9l68 -124l268 -437h243l-471 684l459 668h-239z" />
<glyph unicode="y" horiz-adv-x="1287" d="M990 1352l-346 -1091h-11l-26 118l-316 973h-241l486 -1330l-80 -210q-28 -72 -70.5 -115.5t-96 -56.5t-110 -8t-123.5 27v-172q421 -126 574 231l607 1634h-247z" />
<glyph unicode="z" horiz-adv-x="1294" d="M1152 1185l-749 -983v-20h791v-182h-1074v172l741 971v25h-733v184h1024v-167z" />
<glyph unicode="{" horiz-adv-x="870" d="M839 -308l-40 -137q-221 62 -335 198.5t-114 372.5v256q0 147 -65.5 227t-195.5 80v163q130 0 195.5 78.5t65.5 227.5v257q0 237 113.5 373t335.5 198l40 -136q-253 -81 -253 -435v-257q0 -133 -53.5 -232.5t-158.5 -155.5q104 -56 158 -157t54 -231v-256 q0 -172 60 -281.5t193 -152.5z" />
<glyph unicode="|" horiz-adv-x="633" d="M428 1820v-2158h-223v2158h223z" />
<glyph unicode="}" horiz-adv-x="870" d="M68 -445l-42 137q254 84 254 434v256q0 283 230 388q-230 102 -230 388v257q0 352 -254 435l42 136q145 -41 242 -111t151.5 -185.5t54.5 -274.5v-257q0 -306 262 -306v-163q-132 0 -197 -79.5t-65 -227.5v-256q0 -234 -115 -372t-333 -199z" />
<glyph unicode="~" horiz-adv-x="1738" d="M1414 938l166 -13q0 -107 -48.5 -202t-137 -153.5t-194.5 -58.5q-78 0 -153.5 30.5t-135 73.5t-117.5 86.5t-124 74t-131 30.5q-90 0 -151.5 -67.5t-61.5 -158.5l-166 12q0 166 108 284t271 118q62 0 133.5 -30.5t137 -74t130 -86.5t133.5 -73.5t127 -30.5q88 0 151 74 t63 165z" />
<glyph unicode="&#xe01;" horiz-adv-x="1480" d="M1300 1028v-1028h-210v1028v1q0 55 -23.5 98t-61 69t-89.5 43t-103.5 23.5t-108.5 6.5q-62 0 -121.5 -9t-120 -30.5t-102 -64t-52.5 -101.5q112 -46 184 -103l-1 -961h-210v935q-63 31 -181 56q13 109 69.5 196t141 140t185 80.5t208.5 27.5q104 0 207 -26.5t191 -75 t143 -128.5t55 -177z" />
<glyph unicode="&#xe02;" horiz-adv-x="1426" d="M614 366v-1q0 -96 50 -147.5t137 -51.5h48q84 0 135.5 52.5t51.5 147.5v1048h210v-1062q0 -160 -113 -256t-274 -96h-69q-103 0 -188.5 38t-141.5 120.5t-56 195.5v205q0 23 3 45t6 39.5t12.5 39.5t13 33.5t18.5 34t18.5 29.5t22.5 31.5t22 27.5t25 29.5t23 27.5 q27 36 42.5 61t29.5 67t14 84q-1 60 -43 109t-101 57q41 -62 41 -134q0 -98 -70.5 -168t-168.5 -70t-167.5 70t-69.5 168q0 96 69 171.5t167 106.5q152 33 261.5 1t171.5 -113.5t64 -193.5q3 -148 -83 -264q-67 -89 -89 -164.5t-22 -202.5v-115zM312 1025q49 0 82.5 33.5 t33.5 81.5t-33.5 81.5t-82.5 33.5q-48 0 -81 -33.5t-33 -81.5t33 -81.5t81 -33.5z" />
<glyph unicode="&#xe03;" horiz-adv-x="1454" d="M1274 1412v-1060q0 -160 -113 -256t-274 -96h-44q-103 0 -188.5 38t-141.5 120.5t-56 195.5v121q0 68 27.5 135.5t66.5 125t78.5 116t66.5 129.5t27 144q0 42 -28.5 86t-78.5 69l-124 -89l-153 110q-65 -19 -111 -99q44 17 86 17q98 0 168.5 -70t70.5 -168t-70.5 -168.5 t-168.5 -70.5q-92 0 -160.5 63.5t-76.5 155.5h-1q-35 255 105 389q32 30 70.5 51t57.5 26.5t29 6.5l154 -116l155 116q99 -37 164 -119.5t66 -179.5q1 -78 -20.5 -147.5t-52.5 -123t-62 -106t-53 -119t-22 -140.5v-133v-1q0 -96 50 -147.5t137 -51.5h23q84 0 135.5 52.5 t51.5 147.5v1046h210zM314 1096q-48 0 -81.5 -33.5t-33.5 -81.5q0 -49 33.5 -82t81.5 -33q49 0 82 33t33 82q0 48 -33 81.5t-82 33.5z" />
<glyph unicode="&#xe04;" horiz-adv-x="1577" d="M793 1431q81 0 163 -15t162 -49t141.5 -83t99.5 -122.5t38 -161.5v-1001h-210v1009q0 67 -38 119t-99 81t-126.5 43t-130.5 14q-59 0 -125 -16.5t-127 -47t-101 -83t-40 -117.5v-477l-8 -84l30 86q76 151 142 282l29 57q70 106 201 106q110 0 177 -66.5t67 -175.5 t-67 -176.5t-177 -67.5q-124 0 -198 104q-39 -70 -105.5 -222t-90.5 -262v-106h-210v1021q0 102 55 183.5t144 129.5t193 73t211 25zM794 844q-114 0 -114 -115t114 -115q116 0 116 115t-116 115z" />
<glyph unicode="&#xe05;" horiz-adv-x="1577" d="M400 1004v-483l-10 -90l32 92q76 151 142 282l29 57q70 107 201 107q110 0 177 -67t67 -176q0 -110 -67 -177t-177 -67q-124 0 -198 104q-39 -70 -105.5 -222t-90.5 -262v-101h-210v1021q0 151 91 248t271 169q132 -131 240 -181q104 53 239 182q165 -63 265.5 -175.5 t100.5 -262.5v-1001h-210v1009q0 203 -139 259l-255 -178l-260 174q-133 -57 -133 -261zM794 841q-114 0 -114 -115t114 -115q116 0 116 115t-116 115z" />
<glyph unicode="&#xe06;" horiz-adv-x="1576" d="M1186 1414h210v-1414h-213q0 77 -33.5 151.5t-92.5 134.5t-149.5 97t-195.5 37v-285q0 -51 -40.5 -89t-93.5 -54.5t-104 -16.5q-111 0 -193.5 76t-82.5 189q0 130 85 214t220 92v105q15 44 46.5 94.5t62 92.5t59.5 88t45 97t13 103q-2 42 -30 86t-77 69l-124 -89 l-152 110q-66 -20 -112 -98q42 16 87 16q98 0 168 -70t70 -168t-70 -168t-168 -70q-93 0 -161.5 63t-76.5 155h-1q-35 255 105 389q32 30 70.5 51t57.5 26.5t29 6.5l154 -116l155 116q97 -36 160 -118t70 -181q4 -68 -18.5 -138t-52.5 -119.5t-61.5 -116.5t-41.5 -123l2 -95 q148 0 275 -60t200 -168v1098zM321 1088q-43 0 -74 -31t-31 -75t30.5 -74t74.5 -30t74.5 30t30.5 74t-30.5 75t-74.5 31zM461 95q22 1 30.5 21.5t7.5 67.5v237q-71 0 -116.5 -44.5t-45.5 -117.5v-19q2 -53 36.5 -99t87.5 -46z" />
<glyph unicode="&#xe07;" horiz-adv-x="1112" d="M932 1189v-1051h-3q-61 -79 -180 -138h-195q-116 196 -275 427t-254 317l90 174q75 -66 194.5 -226t205 -290.5t140.5 -222.5h50q13 1 17 11v760q-11 -2 -46 -2q-109 0 -175.5 66.5t-66.5 176.5t66.5 176.5t175.5 66.5q113 0 184.5 -63.5t71.5 -179.5v-2zM561 1191 q0 -115 115 -115t115 115t-115 115t-115 -115z" />
<glyph unicode="&#xe08;" horiz-adv-x="1407" d="M1227 1011v-872q-1 -1 -13 -13.5t-25.5 -25t-34 -29.5t-50 -35.5t-63.5 -35.5h-173l-195 522q-63 -48 -155 -48q-109 0 -175.5 67t-66.5 177q0 100 66 161t176 61q78 0 135.5 -29t86.5 -81l236 -646h41v812q0 92 -50 155t-130 90t-185 27q-175 0 -281 -71t-129 -206 l-151 93q20 78 72.5 144t127 111t167.5 70t194 25q85 0 167 -16.5t156 -51.5t130 -84.5t89 -119t33 -151.5zM518 602q115 0 115 116q0 114 -115 114t-115 -114q0 -116 115 -116z" />
<glyph unicode="&#xe09;" horiz-adv-x="1585" d="M363 525q114 0 114 115q0 116 -114 116t-114 -116q0 -115 114 -115zM1203 108q63 0 95.5 33t32.5 95q0 129 -128 129q-63 0 -96 -33t-33 -96q0 -62 33 -95t96 -33zM1393 1002v-466q-13 -29 -56 -68q60 -32 94 -92.5t34 -139.5q0 -117 -72 -189t-190 -72q-117 0 -189.5 72 t-72.5 189q0 69 36 133q-77 -13 -155 -59t-136 -122t-67 -160v-29l-210 1v400q-10 -2 -46 -2q-110 0 -176.5 66.5t-66.5 175.5q0 111 66.5 177.5t176.5 66.5q111 0 182.5 -67t71.5 -177v-332q107 108 255.5 169t290.5 54q13 13 20 29v431q-5 72 -43.5 127t-98 87t-127 47.5 t-138.5 15.5q-79 0 -141 -9.5t-129 -36.5t-114.5 -85.5t-68.5 -145.5l-148 95q27 92 87 161t142.5 109t175.5 59t196 19q114 0 219.5 -25t196.5 -74.5t146 -135.5t55 -197z" />
<glyph unicode="&#xe0a;" horiz-adv-x="1429" d="M1199 1555h189q0 -290 -360 -384q218 -129 218 -277v-542q0 -160 -113 -256t-274 -96h-69q-103 0 -188.5 38t-141.5 120.5t-56 195.5v205q0 44 8.5 82.5t29.5 76.5t35 59t47.5 63t43.5 56q27 36 42.5 61t30 67t13.5 84q-1 60 -43 109t-101 57q41 -62 41 -134 q0 -98 -70.5 -168t-168.5 -70t-167.5 70t-69.5 168q0 68 44 138q21 34 52.5 62.5t61.5 44t48.5 23t29.5 10.5q210 52 352 -40.5t145 -265.5q2 -150 -83 -264q-67 -89 -89 -164.5t-22 -202.5v-115v-1q0 -96 50 -147.5t137 -51.5h48q84 0 135.5 52.5t51.5 147.5v509 q0 169 -198 259v95q178 43 266.5 121t94.5 205zM312 1025q49 0 82.5 33.5t33.5 81.5t-33.5 81.5t-82.5 33.5q-48 0 -81 -33.5t-33 -81.5t33 -81.5t81 -33.5z" />
<glyph unicode="&#xe0b;" horiz-adv-x="1463" d="M321 1098q-48 0 -81.5 -34t-33.5 -82t33.5 -81t81.5 -33q49 0 82 32.5t33 81.5q0 48 -33.5 82t-81.5 34zM1281 894v-542q-1 -107 -55.5 -188.5t-141.5 -122.5t-191 -41h-44q-103 0 -188.5 38t-141.5 120.5t-56 195.5v122q0 67 29 135t69.5 125.5t80.5 116t65.5 129.5 t21.5 144q-3 43 -30.5 87t-76.5 68l-124 -89l-152 110q-66 -20 -112 -98q42 16 87 16q98 0 168 -70t70 -168t-70 -168t-168 -70q-93 0 -161.5 63t-76.5 155h-1q-35 255 105 389q32 30 70.5 51t57.5 26.5t29 6.5l154 -116l155 116q97 -36 160 -118t70 -181 q5 -78 -14.5 -147.5t-51.5 -123t-64.5 -105.5t-56 -119t-23.5 -141v-134v-1q0 -95 50 -147t138 -52h22q84 0 134.5 52.5t53.5 147.5v509q1 83 -46.5 146.5t-136.5 100.5q0 40 -16 107q177 42 266 118t95 192v16h189v-21q0 -135 -93.5 -226.5t-266.5 -136.5 q218 -128 219 -277z" />
<glyph unicode="&#xe0c;" horiz-adv-x="2126" d="M537 336q-114 0 -114 -115q0 -116 114 -116t114 116q0 115 -114 115zM1090 541v474v1q0 68 -35 119.5t-93 79.5t-122.5 41t-135.5 13q-62 0 -121.5 -9t-120.5 -30.5t-102.5 -64t-52.5 -101.5q112 -46 184 -103v-500q15 3 46 3q109 0 176 -67t67 -176q0 -111 -66.5 -177 t-176.5 -66q-111 0 -182.5 66.5t-71.5 176.5l-2 714q-63 31 -181 56q13 109 69.5 196t141 140t185 80.5t208.5 27.5q104 0 207 -26.5t191 -75t143 -128.5t55 -177v-489q137 0 264 -64t172 -157v1096h210v-1414h-212q0 116 -48 209t-148 150t-238 57v-281q0 -51 -38 -89 t-85 -54.5t-90 -16.5q-93 0 -165.5 76.5t-72.5 188.5q0 130 67 211.5t174 89.5zM1064 95q27 1 26 89v232q-52 0 -83.5 -42t-31.5 -115v-19q2 -52 28 -98.5t61 -46.5z" />
<glyph unicode="&#xe0d;" horiz-adv-x="2134" d="M537 336q-114 0 -114 -115q0 -116 114 -116t114 116q0 115 -114 115zM1300 379q1 -97 57 -155t143 -58h47q84 0 140.5 59t59.5 154v1033h210v-1047q-1 -108 -55 -192.5t-141.5 -128.5t-190.5 -44h-94q-101 0 -186 41.5t-140.5 126t-59.5 198.5v649v1q0 68 -35 119.5 t-93 79.5t-122.5 41t-135.5 13q-62 0 -121.5 -9t-120.5 -30.5t-102.5 -64t-52.5 -101.5q112 -46 184 -103v-500q15 3 46 3q109 0 176 -67t67 -176q0 -111 -66.5 -177t-176.5 -66q-111 0 -182.5 66.5t-71.5 176.5l-2 714q-63 31 -181 56q13 109 69.5 196t141 140t185 80.5 t208.5 27.5q104 0 207 -26.5t191 -75t143 -128.5t55 -177v-649zM1774 -131h190q-44 -199 -182 -299t-346 -100q-49 0 -96 6t-99 23t-91 43.5t-64.5 72t-25.5 104.5q0 97 57 154t154 57t153.5 -57t56.5 -154q0 -67 -36 -118q137 -9 214.5 55.5t114.5 212.5zM1271 -172 q-110 0 -110 -109t110 -109q109 0 109 109t-109 109z" />
<glyph unicode="&#xe0e;" horiz-adv-x="1550" d="M774 1435q104 0 207 -26.5t191 -75t143 -128.5t55 -177v-1422q-64 -99 -210 -100q-43 12 -133.5 92.5t-122.5 99.5q-63 -95 -157 -144t-207 -49h-15q-70 33 -102.5 102t-16.5 142q21 87 97 131t170 44q78 0 173 -44q8 28 11.5 57t2.5 43v15h139l-1 -11q-2 -11 -4.5 -28 t-6.5 -38.5t-11.5 -49t-16.5 -53.5q30 -21 60 -44.5t46.5 -37.5t50 -43t44.5 -39v1364v1q0 68 -35 119.5t-93 79.5t-122.5 41t-135.5 13q-62 0 -121.5 -9t-120.5 -30.5t-102.5 -64t-52.5 -101.5q49 -20 115.5 -59.5t104.5 -69.5v-714q0 -110 -71.5 -176.5t-182.5 -66.5 q-110 0 -176.5 66t-66.5 177q0 109 67 176t176 67q31 0 46 -3v457q-95 46 -219 73q13 109 69.5 196t141 140t185 80.5t208.5 27.5zM457 221q0 115 -114 115t-114 -115q0 -116 114 -116t114 116zM557 -368q158 12 237 132q-67 31 -121 31q-125 0 -142 -75q-6 -23 2 -48 t24 -40z" />
<glyph unicode="&#xe0f;" horiz-adv-x="1550" d="M774 1432q104 0 207 -26.5t191 -75t143 -128.5t55 -177v-1421q-64 -99 -210 -100v1q-24 1 -55 31t-67.5 76.5t-52.5 61.5l-116 -169h-30q-21 0 -40 12t-29.5 26t-30.5 43q-12 18 -33 46q-115 -130 -321 -130h-12q-65 27 -97.5 85.5t-18.5 120.5q15 80 89.5 118.5 t167.5 38.5q94 0 167 -47q23 61 23 102h119q0 -9 -2 -29.5t-14 -67.5t-32 -88q12 -13 60 -80l114 151l28 3q25 0 47 -19t77 -82q25 -31 59 -67v8v1363v2q0 68 -35 119t-93 79t-122.5 41t-135.5 13q-62 0 -121.5 -9t-120.5 -30.5t-102.5 -64t-52.5 -101.5q49 -20 115.5 -59.5 t104.5 -69.5v-713q0 -110 -71.5 -177t-182.5 -67q-110 0 -176.5 66.5t-66.5 177.5q0 109 66.5 175.5t176.5 66.5q36 0 46 -2v456q-99 48 -219 74q13 109 69.5 196t141 139.5t185 80t208.5 27.5zM457 219q0 115 -114 115t-114 -115q0 -117 114 -117t114 117zM399 -380 q144 3 224 95q-49 33 -109 33q-61 0 -98 -17t-43 -47q-8 -40 26 -64z" />
<glyph unicode="&#xe10;" horiz-adv-x="1309" d="M575 1262q-99 0 -175 -57.5t-80 -151.5q22 0 72 1q282 2 420 -21q315 -55 315 -261v-633q-1 -1 -13 -13.5t-25.5 -25t-34 -29.5t-50 -35.5t-63.5 -35.5h-172l-180 374q-68 -68 -176 -68q-109 0 -176 67t-67 177q0 109 66.5 175.5t176.5 66.5q82 0 141 -38.5t86 -105.5 l236 -464h41v584q-4 29 -29.5 53t-69 40t-95.5 27.5t-116.5 17.5t-122 10t-123.5 4.5t-110.5 0.5t-91.5 -1t-59 -1q0 141 61 258t170.5 185.5t243.5 68.5q34 0 67 -3t72.5 -11.5t60 -13t69.5 -18t62 -16.5q27 -6 53.5 -6.5t46.5 4t39.5 12.5t32 15.5t23.5 16.5t14.5 12.5 l5.5 5.5l-1 -1l79 -143q-51 -59 -145 -77t-188 6q-2 0 -31.5 8t-42.5 11t-45.5 10t-55 10t-55 6t-61.5 3zM413 435q114 0 114 115t-114 115q-116 0 -116 -115t116 -115zM950 -501l-13 82l-1 11q-86 -3 -128.5 45t-42.5 125q0 75 47 124t124 49q86 0 138.5 -41t52.5 -119 v-316q-32 -47 -84.5 -75t-115.5 -23q-25 2 -80 44.5t-77 45.5l-133 -89q-8 0 -15.5 1.5t-15 6.5l-12 8t-12.5 12.5t-10.5 12.5t-12 16.5t-12.5 16.5q-4 5 -13 19.5t-15 22.5q-107 -118 -289 -118h-11q-58 25 -86 76t-18 109q9 50 46.5 83.5t84 46.5t99.5 13q83 0 151 -43 q8 22 13 45.5t6 35.5l1 12h108q-4 -84 -44 -168q9 -10 55 -72l101 73q19 9 53.5 -7t76.5 -43.5t61 -34.5zM241 -534q131 3 203 86q-47 30 -99 30q-53 0 -86.5 -15.5t-39.5 -42.5q-4 -16 2.5 -32.5t19.5 -25.5zM1025 -238q0 89 -89 89q-86 0 -86 -89q0 -46 20.5 -66.5 t66.5 -20.5t67 20.5t21 66.5z" />
<glyph unicode="&#xe11;" horiz-adv-x="1721" d="M666 499v-121l-6 -117l28 119q6 25 39 128t93.5 263t127 306t144 251.5t139.5 105.5q64 0 136 -32t121.5 -80.5t52.5 -91.5v-1230h-210v1169q0 15 -4.5 26.5t-16.5 20.5t-18.5 12.5t-23.5 10t-18 7.5q-38 0 -110.5 -125.5t-148.5 -303.5t-146.5 -356.5t-115.5 -303.5 l-45 -125v-32h-227l-1 475q0 67 25.5 135t61.5 125.5t71.5 116t58 129.5t18.5 144q-7 111 -76 155l-124 -89l-153 110q-65 -19 -111 -99q44 17 86 17q98 0 168.5 -70t70.5 -168t-70.5 -168.5t-168.5 -70.5q-92 0 -160.5 63.5t-76.5 155.5h-1q-35 255 105 389q32 30 70.5 51 t57.5 26.5t29 6.5l154 -116l155 116q86 -35 135 -117t50 -182q0 -78 -16.5 -147.5t-41 -123t-49 -106t-41.5 -119t-17 -140.5zM313 1096q-48 0 -81.5 -33.5t-33.5 -81.5q0 -49 33.5 -82t81.5 -33q49 0 82 33t33 82q0 48 -33 81.5t-82 33.5z" />
<glyph unicode="&#xe12;" horiz-adv-x="2223" d="M680 730q0 -115 114 -115q116 0 116 115t-116 115q-114 0 -114 -115zM1187 533v478q0 203 -139 259l-255 -178l-260 174q-133 -57 -133 -261v-790q47 48 98.5 94t121 104.5t100.5 85.5q-168 47 -168 231q0 110 66 176t176 66q111 0 177.5 -66t66.5 -176q0 -45 -15.5 -89 t-35.5 -75.5t-59 -71t-65 -61t-76 -61t-71 -56.5q-76 -63 -118 -99.5t-100 -96t-98 -115.5v-3h-210v1022q0 151 90.5 247.5t271.5 168.5q132 -131 240 -181q104 53 239 182q165 -63 265.5 -175t100.5 -262v-473q138 0 263 -61.5t173 -151.5v1096h210v-1414h-212 q0 174 -117 291t-317 117v-273q0 -51 -38 -89t-85 -54.5t-90 -16.5q-93 0 -165.5 76.5t-72.5 188.5q0 126 67 205.5t174 87.5zM1161 95q26 1 26 89v224q-52 0 -83.5 -40t-31.5 -109v-19q0 -51 26.5 -99t62.5 -46z" />
<glyph unicode="&#xe13;" horiz-adv-x="2160" d="M1923 466q60 -32 93.5 -92t33.5 -139q0 -117 -72.5 -189t-190.5 -72q-116 0 -188.5 72t-72.5 189q0 67 37 133q-110 -18 -179.5 -112t-83.5 -230v-26h-210v1015v1q0 68 -35 119.5t-93 79.5t-122.5 41t-135.5 13q-62 0 -121.5 -9t-120.5 -30.5t-102.5 -64t-52.5 -101.5 q112 -46 184 -103v-500q15 3 46 3q109 0 176 -67t67 -176q0 -111 -66.5 -177t-176.5 -66q-111 0 -182.5 66.5t-71.5 176.5l-2 714q-63 31 -181 56q13 109 69.5 196t141 140t185 80.5t208.5 27.5q104 0 207 -26.5t191 -75t143 -128.5t55 -177v-722q66 113 185 172t262 52 q13 13 20 29v853h210v-877q-15 -33 -54 -69zM537 336q-114 0 -114 -115q0 -116 114 -116t114 116q0 115 -114 115zM1787 106q63 0 96 33.5t33 95.5q0 63 -33 96t-96 33q-128 0 -128 -129q0 -62 32.5 -95.5t95.5 -33.5z" />
<glyph unicode="&#xe14;" horiz-adv-x="1577" d="M1038 732q0 -48 -15 -92.5t-36 -78t-58.5 -72.5t-66.5 -63t-78 -64t-75 -63q-31 -28 -102 -87t-120</font>
</defs>
</svg>
